Movies torrents - Comedy torrents

Almost.Christmas.2016.720p.RNFO.WEBRip.AC3.x264-BDP[PRiME] torrent

Download Direct: Almost.Christmas.2016.720p.RNFO.WEBRip.AC3.x264-BDP[PRiME] - No Client needed
(0) (0)
Download torrent: Almost.Christmas.2016.720p.RNFO.WEBRip.AC3.x264-BDP[PRiME] torrent download
Torrent created: 25 Nov 2016 17:56:41
Torrent added: 25 Nov 2016 18:25:02 Report this torrent as fake!
Torrent's info hash: EFF13061A792DE403D9E3E3ABAD5E681BFD5EFA0
Category: Movies / Comedy
Seeds: - Scraping... Last scraped ...
Leeches: -
Downloads: -
Announce(s):
Tracker S L DL
udp://tracker.ilibr.org:6969/announce---
udp://tracker.coppersurfer.tk:6969---
udp://tracker.ilibr.org:80/announce---
udp://tracker.coppersurfer.tk:6969/announce---
udp://tracker.leechers-paradise.org:6969/announce---
udp://tracker.opentrackr.org:1337/announce
udp://tracker.zer0day.to:1337/announce
udp://ipv4.tracker.harry.lu:80/announce
udp://p4p.arenabg.ch:1337/announce
udp://p4p.arenabg.com:1337/announce
udp://9.rarbg.com:2710/announce
udp://9.rarbg.to:2710/announce
udp://9.rarbg.me:2710/announce
udp://explodie.org:6969/announce
udp://eddie4.nl:6969/announce
Total Size: 2.34 GB
Files:
Almost.Christmas.2016.720p.RNFO.WEBRip.AC3.x264-BDP[PRiME]/Almost.Christmas.2016.720p.RNFO.WEBRip.AC3.x264-BDP[PRiME].mkv - 2.34 GB
Almost.Christmas.2016.720p.RNFO.WEBRip.AC3.x264-BDP[PRiME]/Please Support!! Read More!!!.txt - 232 B
Almost.Christmas.2016.720p.RNFO.WEBRip.AC3.x264-BDP[PRiME]/Torrent Downloaded From 1337x.to.txt - 69 B
Almost.Christmas.2016.720p.RNFO.WEBRip.AC3.x264-BDP[PRiME]/Torrent Downloaded From ExtraTorrent.cc.txt - 446 B
Almost.Christmas.2016.720p.RNFO.WEBRip.AC3.x264-BDP[PRiME]/Torrent downloaded from AhaShare.com.txt - 59 B

Description



Almost.Christmas.2016.720p.RNFO.WEBRip.AC3.x264-BDP[PRiME]



ImDb: http://www.imdb.com/title/tt4649416



Info.png



Complete name : Almost.Christmas.2016.720p.RNFO.WEBRip.AC3.x264-BDP[PRiME].mkv

Format : Matroska

Format version : Version 4 / Version 2

File size : 2.34 GiB

Duration : 1 h 50 min

Overall bit rate : 3 026 kb/s

Encoded date : UTC 2016-11-24 21:44:36

Writing application : Lavf57.46.100

Writing library : Lavf57.46.100 / Lavf57.46.100

COMPOSER : Encoder *BDP*



Video

ID : 1

Format : AVC

Format/Info : Advanced Video Codec

Format profile : [email protected]/* */

Format settings, CABAC : Yes

Format settings, ReFrames : 5 frames

Codec ID : V_MPEG4/ISO/AVC

Duration : 1 h 50 min

Bit rate : 2 864 kb/s

Width : 1 280 pixels

Height : 534 pixels

Display aspect ratio : 2.40:1

Frame rate mode : Constant

Frame rate : 23.976 (24000/1001) FPS

Standard : Component

Color space : YUV

Chroma subsampling : 4:2:0

Bit depth : 8 bits

Scan type : Progressive

Bits/(Pixel*Frame) : 0.175

Stream size : 2.15 GiB (92%)

Writing library : x264 core 148 r2643

Encoding settings : cabac=1 / ref=5 / deblock=1:-3:-3 / analyse=0x3:0x133 / me=umh / subme=7 / psy=1 / psy_rd=1.00:0.00 / mixed_ref=1 / me_range=24 / chroma_me=1 / trellis=1 / 8x8dct=1 / cqm=0 / deadzone=21,11 / fast_pskip=1 / chroma_qp_offset=-2 / threads=12 / lookahead_threads=2 / sliced_threads=0 / nr=0 / decimate=1 / interlaced=0 / bluray_compat=0 / constrained_intra=0 / bframes=3 / b_pyramid=0 / b_adapt=2 / b_bias=0 / direct=0 / weightb=1 / open_gop=0 / weightp=2 / keyint=239 / keyint_min=23 / scenecut=40 / intra_refresh=0 / rc_lookahead=40 / rc=abr / mbtree=1 / bitrate=2864 / ratetol=1.0 / qcomp=0.60 / qpmin=10 / qpmax=69 / qpstep=4 / vbv_maxrate=61150 / vbv_bufsize=61150 / nal_hrd=none / filler=0 / ip_ratio=1.40 / aq=3:1.00

Default : Yes

Forced : No

Color range : Limited

Color primaries : BT.709

Transfer characteristics : BT.709

Matrix coefficients : BT.709

DURATION : 01:50:43.929000000



Audio

ID : 2

Format : AC-3

Format/Info : Audio Coding 3

Format profile : Dolby Digital

Mode extension : CM (complete main)

Format settings, Endianness : Big

Codec ID : A_AC3

Duration : 1 h 50 min

Bit rate mode : Constant

Bit rate : 192 kb/s

Channel(s) : 2 channels

Channel positions : Front: L R

Sampling rate : 48.0 kHz

Frame rate : 31.250 FPS (1536 spf)

Compression mode : Lossy

Stream size : 152 MiB (6%)

Default : Yes

Forced : No

DURATION : 01:50:44.160000000




Screens.png



Click Image To View Full Size



5BZDf.th.jpg

Click To View Screenshot

Click To View Screenshot

Click To View Screenshot



Comments: