Movies torrents - Drama torrents

Love.Is.All.You.Need.2016.1080p.WEB-DL.AAC.2CH.x265-GunGravE[PRiME] torrent

Download Direct: Love.Is.All.You.Need.2016.1080p.WEB-DL.AAC.2CH.x265-GunGravE[PRiME] - No Client needed
(0) (0)
Download torrent: Love.Is.All.You.Need.2016.1080p.WEB-DL.AAC.2CH.x265-GunGravE[PRiME] torrent download
Torrent created: 25 Nov 2016 17:56:56
Torrent added: 25 Nov 2016 18:25:02 Report this torrent as fake!
Torrent's info hash: 30633599AD3A72E3F1565BF048176ABC18646159
Category: Movies / Drama
Seeds: - Scraping... Last scraped ...
Leeches: -
Downloads: -
Announce(s):
Tracker S L DL
udp://tracker.ilibr.org:6969/announce---
udp://tracker.coppersurfer.tk:6969---
udp://tracker.ilibr.org:80/announce---
udp://tracker.coppersurfer.tk:6969/announce---
udp://tracker.leechers-paradise.org:6969/announce---
udp://tracker.opentrackr.org:1337/announce
udp://tracker.zer0day.to:1337/announce
udp://ipv4.tracker.harry.lu:80/announce
udp://p4p.arenabg.ch:1337/announce
udp://p4p.arenabg.com:1337/announce
udp://9.rarbg.com:2710/announce
udp://9.rarbg.to:2710/announce
udp://9.rarbg.me:2710/announce
udp://explodie.org:6969/announce
udp://eddie4.nl:6969/announce
Total Size: 2.01 GB
Files:
Love.Is.All.You.Need.2016.1080p.WEB-DL.AAC.2CH.x265-GunGravE[PRiME]/Love.Is.All.You.Need.2016.1080p.WEB-DL.AAC.2CH.x265-GunGravE[PRiME].mkv - 2.01 GB
Love.Is.All.You.Need.2016.1080p.WEB-DL.AAC.2CH.x265-GunGravE[PRiME]/Please Support!! Read More!!!.txt - 232 B
Love.Is.All.You.Need.2016.1080p.WEB-DL.AAC.2CH.x265-GunGravE[PRiME]/Torrent Downloaded From 1337x.to.txt - 69 B
Love.Is.All.You.Need.2016.1080p.WEB-DL.AAC.2CH.x265-GunGravE[PRiME]/Torrent Downloaded From ExtraTorrent.cc.txt - 446 B
Love.Is.All.You.Need.2016.1080p.WEB-DL.AAC.2CH.x265-GunGravE[PRiME]/Torrent downloaded from AhaShare.com.txt - 59 B

Description



Love.Is.All.You.Need.2016.1080p.WEB-DL.AAC.2CH.x265-GunGravE[PRiME]



ImDb: http://www.imdb.com/title/tt2259122



Info.png



Complete name : Love.Is.All.You.Need.2016.1080p.WEB-DL.AAC.2CH.x265-GunGravE[PRiME].mkv

Format : Matroska

Format version : Version 4 / Version 2

File size : 2.01 GiB

Duration : 2 h 1 min

Overall bit rate : 2 361 kb/s

Encoded date : UTC 2016-11-25 15:33:24

Writing application : mkvmerge v9.5.0 ('Quiet Fire') 64bit

Writing library : libebml v1.3.4 + libmatroska v1.4.5



Video

ID : 1

Format : HEVC

Format/Info : High Efficiency Video Coding

Format profile : [email protected]/* [email protected]

Codec ID : V_MPEGH/ISO/HEVC

Duration : 2 h 1 min

Bit rate : 2 197 kb/s

Width : 1 920 pixels

Height : 796 pixels

Display aspect ratio : 2.40:1

Frame rate mode : Variable

Frame rate : 23.976 FPS

Original frame rate : 25.000 FPS

Color space : YUV

Chroma subsampling : 4:2:0

Bit depth : 8 bits

Bits/(Pixel*Frame) : 0.060

Stream size : 1.87 GiB (93%)

Title : Love.Is.All.You.Need.2016.1080p.WEB-DL.DD5.1.H264-FGT

Writing library : x265 2.1+4-e919ca9dd504:[Linux][GCC 5.4.0][64 bit] 8bit

Encoding settings : wpp / ctu=64 / min-cu-size=8 / max-tu-size=32 / tu-intra-depth=1 / tu-inter-depth=1 / me=1 / subme=2 / merange=57 / no-rect / no-amp / max-merge=2 / temporal-mvp / no-early-skip / rskip / rdpenalty=0 / no-tskip / no-tskip-fast / strong-intra-smoothing / no-lossless / no-cu-lossless / no-constrained-intra / no-fast-intra / open-gop / no-temporal-layers / interlace=0 / keyint=250 / min-keyint=25 / scenecut=40 / rc-lookahead=20 / lookahead-slices=5 / bframes=4 / bframe-bias=0 / b-adapt=2 / ref=3 / limit-refs=3 / no-limit-modes / weightp / no-weightb / aq-mode=1 / qg-size=32 / aq-strength=1.00 / cbqpoffs=0 / crqpoffs=0 / rd=3 / psy-rd=2.00 / rdoq-level=0 / psy-rdoq=0.00 / log2-max-poc-lsb=8 / no-rd-refine / signhide / deblock=0:0 / sao / no-sao-non-deblock / b-pyramid / cutree / no-intra-refresh / rc=abr / bitrate=2297 / qcomp=0.60 / qpmin=0 / qpmax=69 / qpstep=4 / ipratio=1.40 / pbratio=1.30

Language : English

Default : Yes

Forced : No



Audio

ID : 3

Format : AAC

Format/Info : Advanced Audio Codec

Format profile : LC

Codec ID : A_AAC

Duration : 2 h 1 min

Bit rate : 161 kb/s

Channel(s) : 2 channels

Channel positions : Front: L R

Sampling rate : 48.0 kHz

Frame rate : 46.875 FPS (1024 spf)

Compression mode : Lossy

Stream size : 140 MiB (7%)

Language : English

Default : Yes

Forced : No



Text

ID : 2

Format : ASS

Codec ID : S_TEXT/ASS

Codec ID/Info : Advanced Sub Station Alpha

Duration : 1 h 59 min

Bit rate : 127 b/s

Count of elements : 2368

Compression mode : Lossless

Stream size : 112 KiB (0%)

Language : English

Default : Yes

Forced : No



Menu #1

00:00:00.000 : :1

00:10:23.000 : :2

00:22:37.000 : :3

00:31:56.000 : :4

00:43:47.000 : :5

00:50:35.000 : :6

01:01:33.000 : :7

01:11:07.000 : :8

01:22:35.000 : :9

01:32:24.000 : :10

01:41:32.000 : :11

01:49:32.000 : :12

01:57:05.000 : :13



Menu #2

00:00:00.000 : en:1

00:10:23.000 : en:2

00:22:37.000 : en:3

00:31:56.000 : en:4

00:43:47.000 : en:5

00:50:35.000 : en:6

01:01:33.000 : en:7

01:11:07.000 : en:8

01:22:35.000 : en:9

01:32:24.000 : en:10

01:41:32.000 : en:11

01:49:32.000 : en:12

01:57:05.000 : en:13




Screens.png



Click Image To View Full Size



5BAxr.th.jpg

Click To View Screenshot

Click To View Screenshot

Click To View Screenshot



Comments: