Movies torrents - Action torrents

East-West.1999.iNTERNAL.DVDRip.x264-Ltu[PRiME] torrent

Download Direct: East-West.1999.iNTERNAL.DVDRip.x264-Ltu[PRiME] - No Client needed
(0) (0)
Download torrent: East-West.1999.iNTERNAL.DVDRip.x264-Ltu[PRiME] torrent download
Torrent created: 25 Nov 2016 17:07:18
Torrent added: 25 Nov 2016 17:45:02 Report this torrent as fake!
Torrent's info hash: 344BFFE89C02F37D93C18CC31981125E48CF81EF
Category: Movies / Action
Seeds: - Scraping... Last scraped ...
Leeches: -
Downloads: -
Announce(s):
Tracker S L DL
udp://tracker.ilibr.org:6969/announce---
udp://tracker.coppersurfer.tk:6969---
udp://tracker.ilibr.org:80/announce---
udp://tracker.coppersurfer.tk:6969/announce---
udp://tracker.leechers-paradise.org:6969/announce---
udp://tracker.opentrackr.org:1337/announce
udp://tracker.zer0day.to:1337/announce
udp://ipv4.tracker.harry.lu:80/announce
udp://p4p.arenabg.ch:1337/announce
udp://p4p.arenabg.com:1337/announce
udp://9.rarbg.com:2710/announce
udp://9.rarbg.to:2710/announce
udp://9.rarbg.me:2710/announce
udp://explodie.org:6969/announce
udp://eddie4.nl:6969/announce
Total Size: 1.45 GB
Files:
East-West.1999.iNTERNAL.DVDRip.x264-Ltu[PRiME]/East-West.1999.iNTERNAL.DVDRip.x264-Ltu[PRiME].mkv - 1.45 GB
East-West.1999.iNTERNAL.DVDRip.x264-Ltu[PRiME]/Please Support!! Read More!!!.txt - 232 B
East-West.1999.iNTERNAL.DVDRip.x264-Ltu[PRiME]/Torrent Downloaded From 1337x.to.txt - 69 B
East-West.1999.iNTERNAL.DVDRip.x264-Ltu[PRiME]/Torrent Downloaded From ExtraTorrent.cc.txt - 446 B
East-West.1999.iNTERNAL.DVDRip.x264-Ltu[PRiME]/Torrent downloaded from AhaShare.com.txt - 59 B

Description



East-West.1999.iNTERNAL.DVDRip.x264-Ltu[PRiME]



ImDb: http://www.imdb.com/title/tt0907831



Info.png



Complete name : East-West.1999.iNTERNAL.DVDRip.x264-Ltu[PRiME].mkv

Format : Matroska

Format version : Version 4 / Version 2

File size : 1.45 GiB

Duration : 2 h 4 min

Overall bit rate : 1 660 kb/s

Encoded date : UTC 2016-11-20 18:19:15

Writing application : mkvmerge v8.8.0 ('Wind at my back') 64bit

Writing library : libebml v1.3.3 + libmatroska v1.4.4



Video

ID : 1

Format : AVC

Format/Info : Advanced Video Codec

Format profile : [email protected]/* */

Format settings, CABAC : Yes

Format settings, ReFrames : 5 frames

Codec ID : V_MPEG4/ISO/AVC

Duration : 2 h 4 min

Bit rate : 1 530 kb/s

Width : 706 pixels

Height : 392 pixels

Display aspect ratio : 16:9

Frame rate mode : Constant

Frame rate : 23.976 (24000/1001) FPS

Color space : YUV

Chroma subsampling : 4:2:0

Bit depth : 8 bits

Scan type : Progressive

Bits/(Pixel*Frame) : 0.231

Stream size : 1.33 GiB (92%)

Writing library : x264 core 148 r2721 72d53ab

Encoding settings : cabac=1 / ref=5 / deblock=1:-3:-3 / analyse=0x3:0x113 / me=umh / subme=8 / psy=1 / psy_rd=1.00:0.00 / mixed_ref=1 / me_range=16 / chroma_me=1 / trellis=1 / 8x8dct=1 / cqm=0 / deadzone=21,11 / fast_pskip=1 / chroma_qp_offset=-2 / threads=6 / lookahead_threads=1 / sliced_threads=0 / nr=0 / decimate=1 / interlaced=0 / bluray_compat=0 / constrained_intra=0 / bframes=3 / b_pyramid=2 / b_adapt=1 / b_bias=0 / direct=3 / weightb=1 / open_gop=0 / weightp=2 / keyint=240 / keyint_min=23 / scenecut=40 / intra_refresh=0 / rc_lookahead=50 / rc=crf / mbtree=1 / crf=19.0 / qcomp=0.60 / qpmin=0 / qpmax=69 / qpstep=4 / vbv_maxrate=17500 / vbv_bufsize=17500 / crf_max=0.0 / nal_hrd=none / filler=0 / ip_ratio=1.40 / aq=1:1.00

Language : English

Default : Yes

Forced : No

Color range : Limited

Matrix coefficients : BT.709



Audio

ID : 2

Format : AAC

Format/Info : Advanced Audio Codec

Format profile : LC

Codec ID : A_AAC

Duration : 2 h 4 min

Bit rate : 128 kb/s

Channel(s) : 2 channels

Channel positions : Front: L R

Sampling rate : 48.0 kHz

Frame rate : 46.875 FPS (1024 spf)

Compression mode : Lossy

Delay relative to video : 9 ms

Stream size : 114 MiB (8%)

Language : French

Default : Yes

Forced : No



Text

ID : 3

Format : UTF-8

Codec ID : S_TEXT/UTF8

Codec ID/Info : UTF-8 Plain Text

Duration : 2 h 0 min

Bit rate : 31 b/s

Count of elements : 1152

Stream size : 27.5 KiB (0%)

Language : English

Default : Yes

Forced : No



Menu

00:00:00.054 : en:00:00:00.054




Screens.png



Click Image To View Full Size



5BR4T.th.jpg

Click To View Screenshot

Click To View Screenshot

Click To View Screenshot



Comments: